#TITLE:Depend on You;
#SUBTITLE:(Svenson & Gielen remix);
#ARTIST:浜崎あゆみ;
#TITLETRANSLIT:;
#SUBTITLETRANSLIT:;
#ARTISTTRANSLIT:Ayumi Hamasaki;
#CREDIT:;
#BANNER:dependonyou-banner.png;
#BACKGROUND:dependonyou-bg.png;
#LYRICSPATH:;
#CDTITLE:cdtitle.png;
#MUSIC:Ayumi Hamasaki - Ayu Trance - 01 - Depend on You (Svenson & Gielen Remix).mp3;
#OFFSET:-11.600;
#SAMPLESTART:49.340;
#SAMPLELENGTH:12.000;
#SELECTABLE:YES;
#BPMS:0.000=138.020;
#STOPS:;
#BGCHANGES:;
// cache tags:
#FIRSTBEAT:0.500;
#LASTBEAT:542.500;
#SONGFILENAME:Songs/SS Ayu Style -Mini Pack-/Depend on you svenson & gielen remix/dependonyou.sm;
#HASMUSIC:1;
#HASBANNER:1;
#MUSICLENGTH:252.426;
// end cache tags

//---------------dance-single - ----------------
#NOTES:
     dance-single:
     :
     Hard:
     10:
     0.869,0.887,0.689,0.083,0.771,1340.000,174.000,21.000,0.000,0.000:
0000
2200
0000
0000
3300
0001
0000
0100
,
0010
0000
1000
0100
1000
0100
1000
0100
1000
0001
0100
0001
0100
0001
0100
0001
,
0100
1000
0001
1000
0001
1000
0010
0100
0001
1000
0010
1000
0100
0010
0001
0100
,
0010
1000
0100
0010
0000
0001
0000
0000
0100
0000
0010
1000
0000
0100
0000
1000
,
0100
1000
0100
1000
0001
0100
0000
0010
1000
0000
0001
0010
0001
0010
0000
0100
,
1000
0000
0001
1000
0001
1000
0000
0010
1000
0000
0001
0100
0001
0100
0000
0100
,
1000
0000
0001
0010
0100
1000
0001
0010
0100
1000
0001
0010
0100
1000
0000
0001
,
0010
0000
0001
0100
0001
0100
0000
0010
1000
0000
0001
0010
0001
0010
0000
0100
,
1000
0000
0001
1000
0001
1000
0000
0010
1000
0000
0010
1000
0010
1000
0000
0001
,
0100
0000
0001
0100
0001
0100
0000
0010
0100
0000
0001
1000
0001
1000
0000
0100
,
1000
0000
1000
0100
0010
0001
1000
0100
0010
0001
1000
0100
0010
0001
1000
0100
,
0010
0001
1010
0000
0110
0000
1001
0000
0011
0000
0101
0000
0011
0000
1001
0000
,
0101
0101
0010
0011
0100
1100
1100
1100
,
1000
0001
0001
0101
0010
1010
0001
1001
,
0100
0000
1000
0001
0010
0100
1000
0001
0010
0100
1000
0001
0010
0100
1000
0001
,
0010
0100
1000
0000
0100
0000
1100
0000
0010
0000
1010
0000
0001
0000
1001
0000
,
0100
1000
0100
0000
1000
0000
0001
0000
0101
0000
0010
0000
1000
0000
0100
1000
,
0100
1100
0001
0101
0010
1010
0001
0110
,
0100
0000
1000
0001
1000
0001
1000
0001
1000
0010
0100
0001
1000
0010
0100
0001
,
1000
0010
0100
0000
0001
0000
1001
0000
0100
0000
1100
0000
0001
0000
0100
0001
,
0100
0000
0010
0010
1000
0000
0001
0000
0011
0000
0100
0000
1000
0000
0100
1000
,
0100
1000
0001
0100
0010
1000
0100
0010
0001
0000
0101
0000
0010
0000
1001
0000
,
0100
0000
1000
0001
1000
0001
1000
0001
1000
0001
1000
0001
1000
0010
0100
0001
,
1000
0101
1010
0101
0011
0101
1100
0001
,
1100
0000
0001
0000
0100
0000
0101
0000
0101
0000
0010
1000
0100
0010
0001
0000
,
0101
0000
0010
0000
1000
0000
0100
0000
1000
0000
0010
1000
0010
0000
0100
1000
,
0100
0000
0100
1000
0100
1000
0100
1000
0001
0100
0010
1000
0100
0010
0001
0100
,
0010
0000
1001
0000
0000
0000
0100
1000
0100
0000
0001
0000
0100
0000
0101
0000
,
0101
0000
0010
0000
1000
0000
0100
1000
0100
0000
1100
0000
0001
0000
1001
0000
,
0100
0000
1100
0000
0001
0000
1000
0001
1000
0000
1001
0000
0100
0000
0001
0000
,
1010
0000
0001
0000
1000
0000
0001
0000
1000
0001
1000
0000
0000
1100
0000
0000
,
0101
0020
1000
1030
0001
0100
0001
0100
,
0001
0100
0002
0000
0000
0100
0000
0000
0103
0000
0010
0000
1000
0000
0001
0000
,
0010
0001
0010
0000
0011
0000
0100
0000
1100
0000
0001
0000
1001
0000
0100
0000
,
0100
1001
0010
1000
1000
0001
0001
0100
,
0001
0000
0100
0001
0100
0001
0100
0001
0100
0001
0100
0000
0010
0000
0100
0000
,
0001
0000
1001
0000
0000
0000
0100
1000
0100
0000
1100
0000
0000
0000
0001
0100
,
0001
0000
0100
0000
0100
0000
0010
0000
1010
0000
0000
0000
0001
1000
0001
0000
,
1000
1000
1001
0110
0100
1100
0010
1010
,
0001
0000
1001
0000
0100
0000
1100
0000
0001
0000
0010
0001
0010
0000
0100
0000
,
1001
0100
1000
1000
0001
0100
0100
0010
,
1000
0010
1000
0000
1010
0000
0001
0000
1100
0000
0001
0000
0010
0000
0001
0010
,
0001
0011
0100
0100
0100
1001
0001
1100
,
0001
0000
1000
0010
1000
0010
1000
0010
1000
0010
1000
0001
0100
0001
0100
0001
,
0100
0010
1000
0100
0000
0010
0000
0000
0001
0000
0100
0010
0000
1010
0000
0001
,
1000
0000
0100
1000
0100
1000
0000
0001
0100
0000
0010
1000
0010
1000
0000
0001
,
0010
0000
0100
1000
0100
1000
0000
0001
0100
0000
0010
1000
0010
1000
0000
0001
,
0010
0000
0001
0010
0001
0010
0000
0000
0100
0000
1000
0010
1000
0010
0000
0100
,
0001
0000
0100
0010
0100
0001
0000
1000
0100
0000
0010
0001
0010
0100
0000
1000
,
0001
0000
1000
0010
0100
0001
0000
1000
0010
0000
0100
0001
0100
0001
0000
0100
,
0010
0000
1000
0010
1000
0010
0000
1000
0001
0000
0010
0001
0010
0001
0000
0010
,
0100
0000
1000
0001
1000
0001
1000
0001
1000
0001
1000
0001
1000
0001
1000
0010
,
0100
0001
0100
0010
1000
0000
0100
0000
0011
0000
0100
0000
1100
0000
0001
1000
,
0001
0000
1000
0000
0100
0000
1100
0000
0001
0000
0100
0000
0001
0000
0100
0001
,
0100
0010
1010
0001
1001
0100
1100
0001
,
0010
0000
0001
0010
0100
1000
0001
0010
0100
1000
0001
0010
0100
1000
0001
0010
,
0100
0000
1001
0000
0100
0000
0100
1000
0100
0000
1000
0000
0001
0000
0101
0000
,
0101
0000
0010
0000
1000
0000
0001
0000
0010
0001
0010
0000
0001
0000
0011
0000
,
0100
1000
0001
1000
0010
0010
0100
0100
,
0001
0000
0001
0000
1000
0000
0100
1000
0100
0000
1001
0000
0100
0000
1100
0000
,
0001
0000
1001
0000
0000
0000
0010
1000
0010
0000
1000
0000
0001
0000
1000
0000
,
1001
0000
0100
0000
1000
0000
0001
0000
0100
0000
0001
0100
0001
0000
0101
0000
,
0001
0000
1001
0000
0100
0000
1100
0000
0001
0000
1000
0010
1000
0000
0001
0000
,
0001
0000
0100
0000
0010
0000
1000
0001
0010
0000
0001
0000
0000
0011
0000
0000
,
1100
0001
0100
0100
0010
1000
0001
0001
,
1000
0002
1000
0000
0000
1000
0000
0003
1000
0000
0010
0000
0100
0000
0001
0000
,
0100
0001
0100
0000
0000
0011
0000
0000
1100
0000
1001
0000
0000
1010
0000
0000
,
0002
0100
0000
0103
0010
1000
0000
0001
,
0000
0000
1000
0001
1000
0001
1000
0001
1000
0001
1000
0000
0100
0000
1100
0000
,
1100
0000
1100
0000
0000
0000
0001
0100
0001
0000
0101
0000
0000
0000
0001
0010
,
0001
0000
0011
0000
1100
0000
1001
0000
1010
0000
0001
0000
0100
0001
0100
0000
,
0100
0000
0010
0000
1000
0000
0001
0000
1000
0001
1000
0000
0100
0000
1100
0000
,
0001
0000
0101
0000
0001
0000
1001
0000
0010
0000
1000
0010
1000
0000
0001
0000
,
0001
0102
1000
1003
0200
1000
1000
1300
,
0001
0010
0002
0000
0010
0000
0013
0000
0100
0000
1000
0000
1000
0000
0001
0000
,
0000
0000
0202
0000
0000
0000
0000
0000
0000
0303
0020
0000
0000
0030
1000
0000
,
0001
0000
1000
0001
1000
0001
1000
0001
1000
0001
1000
0000
0100
0000
1100
0000
,
1100
0000
1100
0000
0000
0000
0001
0100
0001
0000
0101
0000
0000
0000
0001
0010
,
0001
0000
0010
0000
0010
0000
0001
0000
1001
0000
0100
0000
1000
0100
1000
0000
,
1000
0000
1000
0000
0001
0000
0100
0000
0001
0100
0001
0000
0101
0000
0010
0000
,
1010
0000
0001
0000
1001
0000
0100
0000
1000
0000
0100
1000
0100
0000
1000
0000
,
1000
0001
0100
0100
0010
1000
0001
0010
,
0100
0010
0100
0000
0011
0000
0100
0000
1001
0000
0010
0000
1000
0000
0001
0000
,
0100
0000
0001
0100
0002
0000
0000
0000
0000
0000
1000
0000
0000
0000
1000
0003
,
0010
0000
0100
0000
0001
0000
0010
0000
0100
0000
1000
0001
1000
0000
0010
0000
,
0100
1001
0100
0100
1001
0001
0001
1001
,
0010
0010
1010
0001
0001
1001
0001
1001
,
0100
1100
0100
0100
1100
0001
0001
0011
,
0001
0001
1001
0001
0001
1010
1010
1010
,
0001
0100
0010
1000
0100
0011
0001
0100
,
0010
1010
0100
1000
0001
0010
0001
0100
,
0010
1010
1010
0001
1000
0100
1100
0001
,
0101
0000
0010
0000
1001
0000
0100
0000
0001
1000
0010
0000
0001
0000
1000
0100
,
1000
0000
0001
0000
0000
0000
0001
0010
0100
0000
0001
0000
0010
1000
0010
0000
,
1000
0000
0001
0000
0100
0000
0100
0000
0001
0000
1000
0001
1000
0000
0100
0000
,
0100
0000
1100
0000
0001
0000
0001
0100
0001
0000
0100
0000
0001
0000
0000
0000
,
0002
0000
0000
0000
0000
0000
0000
0003
0000
0000
0001
0010
0001
0000
0011
0000
,
0100
1100
0001
1001
0010
1000
0001
0100
,
0010
1000
0020
0000
0000
1000
0000
0000
1030
0000
0100
0000
1000
0000
0100
0000
,
1000
0100
1000
0000
0000
1001
0000
0000
1100
0000
0002
0000
0000
0100
0000
0000
,
0103
0020
0000
1030
0100
0020
0000
0032
,
0000
0003
0010
0001
0010
0100
1000
0001
0010
0100
1000
0000
0001
0000
1001
0000
,
1001
1001
0000
0000
1100
1100
0000
0000
,
0001
0100
0001
0000
0010
0000
0100
0000
1100
0000
0001
0000
0001
1000
0001
0000
,
1000
0000
1001
0000
0100
0000
0100
0000
0100
0000
0100
1000
0001
0000
0001
1000
,
0100
0000
1000
0000
1000
0000
0020
0000
0000
0000
0000
0000
0000
0030
0000
0000
,
0001
1000
0001
0000
0000
0000
0100
1000
1100
0000
0001
0000
0100
0000
0001
0000
,
0100
0001
0100
0000
0000
0000
1001
0000
1001
0000
0100
0000
1000
0000
0001
0000
,
0100
0000
0101
0000
0001
0000
1000
0000
0100
0000
1100
0000
0000
0000
0001
0100
,
0001
0100
0100
0010
1000
0001
1001
1001
,
1001
0000
1001
0000
0000
0000
0000
0000
0100
1000
0100
0000
0000
0000
0000
0000
,
1001
0000
0000
0000
0010
1000
0010
0000
1000
0000
0001
0000
0011
0000
0011
0000
,
0011
0000
0011
0000
0000
0000
0100
1000
0100
0000
1001
0000
0001
0000
0001
0000
,
1001
0000
0001
0000
1001
0000
1001
0000
0010
0000
1000
0010
1000
0000
0010
0000
,
1010
0000
0110
0000
1000
0000
0101
0000
0101
0000
0100
0000
0100
1000
0100
1000
,
0100
1000
0001
1000
0001
1000
0001
1000
0001
1000
0010
1000
0010
1000
0010
1000
,
0010
1000
0001
1000
0001
1000
0001
1000
0001
1000
0100
1000
0100
1000
0100
1000
,
0100
1000
0001
1000
0010
0100
0001
1000
0010
0100
0001
1000
0010
0100
0001
1000
,
0010
0100
0001
1000
0010
0100
0001
0100
0001
0100
0001
0100
0001
0100
0001
0000
,
0011
0000
0001
0100
0001
0100
0000
0010
0100
0000
0001
1000
0100
1000
0000
0001
,
0010
0000
0100
1000
0001
1000
0000
0010
0100
0000
0001
1000
0100
1000
0000
0001
,
0010
0000
0001
1000
0001
1000
0000
0010
1000
0000
0001
0100
0001
0100
0000
0010
,
1000
0000
0001
1000
0001
0000
0000
1000
0100
0000
1000
0001
0100
0010
0000
1000
,
0100
0000
0010
0001
0010
0001
0000
0010
0100
0000
1000
0001
1000
0001
0000
1000
,
0010
0000
1000
0001
1000
0001
0000
1000
0100
0000
1000
0001
1000
0001
0000
1000
,
0010
0000
0100
0010
0100
0010
0000
1000
0010
0000
1000
0001
1000
0100
0000
1000
,
0001
0000
0010
0001
0010
0001
0010
0001
0010
0001
0010
0001
0010
0001
0010
0001
,
0010
0001
0010
0100
0000
1000
0000
0000
0001
0000
0100
0010
0000
1000
0000
0100
,
0010
0000
0001
0100
0000
0010
0000
1000
0100
0000
1000
0100
1000
0100
0000
1000
,
0001
0000
0100
0001
0100
0001
0000
0100
0010
0000
1000
0010
1000
0010
0000
0100
,
0001
0000
0010
0001
0010
0100
1000
0001
0100
0010
1000
0100
0010
0001
0100
0010
,
1000
0100
1000
0001
0000
1010
0000
0000
1001
0000
0100
0001
0100
0001
0000
1000
,
0100
0000
1000
0100
1000
0001
0000
1000
0001
0000
0100
0010
0100
0010
0000
1000
,
0001
0000
0010
0001
0010
0001
0000
0010
0100
0000
1000
0001
1000
0100
0000
1000
,
0001
0000
1000
0001
1000
0001
1000
0001
1000
0010
0100
0001
1000
0100
0010
0001
,
0100
0020
0000
0000
0000
0000
0000
0000
0000
0000
0030
0000
0000
0000
0000
0000
;

//---------------dance-single - ----------------
#NOTES:
     dance-single:
     :
     Easy:
     1:
     0.000,0.000,0.000,0.000,0.000,0.000,0.000,0.000,0.000,0.000:
0000
0000
0000
0000
;

//---------------dance-single - ----------------
#NOTES:
     dance-single:
     :
     Medium:
     1:
     0.000,0.000,0.000,0.000,0.000,0.000,0.000,0.000,0.000,0.000:
0000
0000
0000
0000
;

//---------------dance-single - ----------------
#NOTES:
     dance-single:
     :
     Beginner:
     1:
     0.000,0.000,0.000,0.000,0.000,0.000,0.000,0.000,0.000,0.000:
0000
0000
0000
0000
;

//---------------dance-single - Copied from----------------
#NOTES:
     dance-single:
     Copied from:
     Challenge:
     11:
     0.868,1.000,0.475,0.032,0.889,1406.000,120.000,8.000,0.000,0.000:
0000
0000
0000
0000
0000
0100
1000
0001
,
0001
0000
0100
0001
0100
0001
0100
0001
0100
0001
0100
0010
1000
0010
1000
0010
,
1000
0001
1000
0001
1000
0001
1000
0001
1000
0001
1000
0001
1000
0001
1000
0001
1000
0001
1000
0001
1000
0001
1000
0001
1000
0001
1000
0001
1000
0001
1000
0001
,
0000
0000
0001
0000
0000
0010
0000
0000
1000
0000
0100
0010
0000
0001
0000
0001
,
0100
0000
0010
1000
0010
1000
0000
0000
1000
0000
0001
1000
0000
0010
0100
0000
,
1000
0000
0001
0010
0001
0010
0000
0000
0100
0000
1000
0010
1000
0010
0000
0000
,
0001
0000
0100
0001
0000
0101
0000
0100
1000
0000
0001
0010
0000
0100
0000
0100
,
0000
0000
0100
1000
0100
1000
0000
0000
0001
0000
0100
0010
1000
0010
0000
1000
,
0001
0000
0010
0100
0010
0100
0000
0010
0001
0000
1000
0001
1000
0001
0000
1000
,
0010
0000
1000
0001
1000
0010
0000
0100
0001
0000
1000
0100
0010
0001
0000
0100
,
0010
0000
0000
0000
1000
0000
0001
0000
1000
0000
0001
0000
1000
0000
0001
0000
1000
0001
1000
0001
1000
0001
1000
0001
1000
0001
1000
0001
1000
0001
1000
0001
,
1000
0001
1000
0001
0000
0000
0000
0000
0000
0000
0000
0000
0010
0000
0000
0000
1000
0000
0000
0000
0001
0000
0000
0000
1000
0000
0100
0000
1000
0000
0000
0000
,
0001
0000
0101
0000
0010
0000
1000
0000
1000
0000
0001
0000
0010
0000
0001
0010
,
0001
0000
1100
0000
0100
0000
1001
0000
0010
0000
1000
0000
0001
0100
0001
0000
,
0010
0000
0010
0100
1000
0001
0010
0100
1000
0001
0010
0100
1000
0001
0010
0100
,
1000
0001
0101
0010
1010
0001
1100
0001
,
0100
0001
0100
0000
0010
0000
1010
0000
0001
0000
1000
0000
0001
0000
0010
0001
,
0010
0001
0010
0000
0100
0000
1100
0000
0001
0000
1010
0000
0001
0000
0100
0000
,
1000
0000
0001
0010
0100
1000
0001
0010
0100
1000
0001
0010
0100
1000
0001
0010
,
0100
0000
1100
0000
0001
0000
1001
0000
0010
0000
1000
0000
0001
0100
0001
0000
,
0100
0000
0101
0000
1000
0000
1000
0000
0100
0000
0010
0000
0001
0000
0010
0001
,
0010
0100
0100
1001
0010
1000
0001
0001
,
0100
0000
0010
0000
1000
0000
0100
0010
0001
0010
0100
1000
0001
1000
0010
0000
,
0100
0000
0001
0000
1001
0000
0100
0000
1100
0000
0010
0000
1000
0010
1000
0000
,
0010
0000
0010
0000
1000
0000
0001
0000
1000
0100
1000
0000
0100
0000
0100
0000
,
0010
0000
0001
0010
0001
0010
0001
0010
0001
0010
0001
0010
0100
1000
0001
1000
,
0010
1000
0001
0100
0010
1000
0001
0100
0010
0000
1001
0000
0100
0000
1100
0000
,
0001
0000
0010
0001
0010
0000
0100
0000
1100
0000
0001
0000
0100
0001
0100
0000
,
0100
0010
1000
0001
1000
1100
0000
1001
,
0000
1010
0000
0001
0010
0100
1000
0001
,
0001
0000
0100
0000
0010
0000
1000
0010
1000
0000
0010
0000
1000
0000
0001
0000
,
0010
0011
0100
1000
1000
0001
0100
0001
,
0100
0001
0100
0000
0000
0010
0000
0000
0010
0000
1000
0000
0001
0000
1000
0000
,
0100
1000
0100
1000
0000
0000
0001
0000
1000
0000
1001
0000
0100
0000
1001
0000
,
0001
0000
0010
0001
0010
0100
1000
0001
0010
0100
1000
0001
1000
0000
0010
0000
,
0010
0000
0000
0000
1000
0100
1000
0100
1000
0100
1000
0100
1000
0100
1000
0100
1000
0000
0001
0000
1000
0000
0010
0000
0100
0000
0000
0000
0001
0000
0000
0000
,
0001
0000
0101
0000
0000
0000
0001
1000
0001
0000
1100
0000
0001
0000
0100
0000
,
0001
0100
0001
0000
0010
0000
0001
0001
0010
0000
0100
0000
1000
0100
1000
0000
,
0001
0000
0001
0000
0100
0000
0010
0000
1000
0010
1000
0000
0001
0000
1001
0000
,
0100
0000
1100
0000
0001
0000
0101
0000
0010
0000
0001
0010
0001
0010
0100
0000
,
1000
0001
1001
0100
0001
1000
0010
0100
,
0001
0010
0001
0000
0011
0000
0100
0000
1000
0000
1000
0000
0001
0000
0100
0000
,
0010
0000
1000
0010
1000
0000
0001
0000
0100
0000
0101
0000
1000
0000
0100
0000
,
1000
0000
0000
0010
0100
0010
0100
0010
0100
0010
0100
0010
0100
0010
0100
0010
0100
0010
0100
0010
0100
0010
0100
0010
0100
0001
1000
0001
1000
0001
1000
0001
,
1000
0001
1000
0001
0000
0000
0000
0000
0100
0000
0000
0000
1000
0000
0000
0000
0001
0000
0000
0000
0100
0000
0001
0000
0100
0000
0010
0000
0000
0000
0000
0000
,
0100
0000
1000
0100
1000
0100
0000
1000
0001
0000
0100
0010
1000
0100
0000
0010
,
0001
0000
0100
0001
0100
0010
0000
1000
0001
0000
0010
0100
0010
0001
0000
0010
,
0100
0000
1000
0001
1000
0010
0000
0100
0000
0000
0001
1000
0000
0100
0000
0010
,
0001
0000
0100
0010
1000
0100
0000
0010
0001
0000
0100
0010
1000
0100
0000
0010
,
0001
0000
0010
0001
0010
0001
0000
1000
0001
0000
1000
0010
0100
0001
0000
0100
,
0010
0000
1000
0100
1000
0100
0000
1000
0001
0000
0100
0010
0100
0001
0000
1000
,
0100
0000
0100
0001
0100
0001
0100
0001
0100
0001
0100
0001
0100
0010
0100
0001
,
0100
0010
0100
0000
0000
0000
0001
0000
1100
0000
0001
0000
1001
0000
0100
0000
,
1000
0001
1000
0000
0100
0000
1100
0000
0001
0000
0010
0000
0010
0000
0001
0010
,
0001
0010
0001
0000
1000
0000
0001
0000
1001
0000
0100
0000
1100
0000
0001
0000
,
1001
0000
0010
1000
0010
1000
0001
0100
0010
1000
0001
0100
0010
1000
0001
0100
,
0010
0000
1001
0000
0100
0000
1100
0000
0001
0000
0010
0000
0001
0010
0001
0000
,
0010
0000
0011
0000
1100
0000
1001
0000
0001
1000
0001
0000
1000
0000
1001
0000
,
0101
0000
0010
0000
1000
0010
1000
0000
0001
0000
0100
0001
0100
0000
0010
1000
,
0010
0000
0010
0001
0010
0000
0100
1000
0100
0000
1000
0000
0001
0000
1001
0000
,
0100
0000
1100
0000
0000
0000
0001
0100
0001
0000
0100
0000
0010
0000
0010
0000
,
1000
0000
0001
0000
0010
0000
0100
0000
1000
0000
0001
1000
0001
0000
1001
0000
,
0100
0000
1100
0000
0001
0000
0100
0001
0100
0000
0001
0000
0010
0000
0001
0000
,
0010
0000
0010
0000
0001
0000
1000
0000
0001
0000
1000
0001
1000
0000
0001
0000
,
1001
0100
0001
1000
1000
0010
0100
0001
,
0100
0001
0100
0000
0000
0100
0000
0000
0100
0000
0001
0000
0010
0000
0001
0000
,
0010
0001
0010
0000
0001
0000
1001
0000
0100
0000
1100
0000
0001
0000
1001
0000
,
0010
1000
1000
0001
0001
0100
0100
0010
,
1000
0000
0000
0000
1000
0001
1000
0001
1000
0001
1000
0001
1000
0001
1000
0001
1000
0001
1000
0001
1000
0000
0000
0000
0100
0000
0000
0000
1001
0000
0000
0000
,
0101
0000
1001
0000
0000
0000
0001
1000
0001
0000
1100
0000
0000
0000
0001
0000
,
0100
0001
0100
0000
0001
0000
0011
0000
0100
0000
1001
0000
0010
1000
0010
0000
,
1000
0000
1010
0000
0001
0000
1000
0000
0001
1000
0001
0000
1001
0000
0100
0000
,
0001
0000
0100
0000
0100
0000
0010
0000
1000
0000
0001
0010
0001
0010
0001
0000
,
1000
1001
0100
1100
0001
0100
0100
0001
,
0100
0001
0100
0000
0001
0000
0101
0000
0001
0000
1100
0000
0001
0000
0010
1000
,
0000
0000
0001
0010
0001
0000
0010
0000
0100
0000
1100
0000
0001
0000
1000
0000
,
0001
0000
1000
0001
1000
0001
1000
0001
1000
0001
1000
0001
1000
0001
0100
0010
,
1000
0001
0100
0000
0000
0000
0010
0000
1010
0000
0001
0000
0010
0000
0001
0000
,
0010
0001
0010
0000
0011
0000
1100
0000
1001
0000
0000
0000
0001
0100
0001
0000
,
0100
0000
1010
0000
0001
0000
1000
0000
0100
1000
0100
0000
1100
0000
0001
0000
,
0011
0000
0001
0000
1001
0000
0010
0000
1000
0000
0010
1000
0010
0000
1000
0000
,
0001
1001
0100
1100
0001
0100
0100
0100
,
0100
0001
0100
0000
0001
0000
0011
0000
0100
0000
1100
0000
0001
0000
0100
0000
,
0001
0000
0100
0002
0000
0000
1003
0000
0000
0000
0010
0000
0000
0000
0100
0000
,
0001
0000
0010
0001
0010
0100
1000
0001
0010
0100
1000
0001
0010
0100
1000
0001
,
0010
0100
1000
0000
0001
0000
1001
0000
0010
0000
1010
0000
0001
0000
1001
0000
,
0100
1100
0001
1001
0010
1000
0010
1000
,
0001
0101
0001
1000
0100
1100
0001
0101
,
0001
0011
0100
1000
0001
0100
0100
0010
,
1000
0001
1001
0100
1000
1100
0010
1010
,
0001
0000
1001
0000
0100
0000
1100
0000
0001
0000
0100
0001
0100
0000
0010
0000
,
0010
1000
0001
1001
0100
1100
0001
0011
,
0010
0000
1010
0000
0010
0000
0100
0010
0010
0000
1000
0000
0010
0000
1000
0000
,
0001
0000
1001
0000
0000
0000
0100
1000
0100
0000
1000
0000
0001
0000
0101
0000
,
0101
0000
0010
0000
1000
0000
0001
0000
0010
0000
0001
0010
0001
0000
0011
0000
,
0100
1100
0001
0100
0100
0010
1000
0000
,
0002
0000
0000
0000
0000
0003
0000
0000
0000
0000
0001
1000
0001
0000
1000
0000
,
1100
0002
0000
0100
0103
0010
1000
0001
,
0010
0001
0010
0000
0000
0011
0000
0000
1100
0000
0001
0000
0100
0000
0001
0000
,
0100
0001
0100
0000
0000
1010
0000
0000
0102
0000
1000
0000
0000
1003
0000
0000
,
0200
0000
0010
0000
0000
0300
0010
0000
0001
0000
1000
0000
0000
0000
0010
0000
,
0000
0000
0000
0000
0100
0001
0100
0001
0100
0001
0100
0001
0100
0001
0100
0001
0100
0001
0100
0001
0100
0001
0000
0000
0001
0000
0000
0000
0100
0000
0000
0000
,
0001
0000
0101
0000
0000
0000
0001
1000
0001
0000
1100
0000
0000
0000
0001
0100
,
0001
0000
0010
0000
0010
0000
0001
0000
1001
0000
0100
0000
1000
0100
1000
0000
,
0001
0000
0001
0000
0100
0000
0001
0000
0001
0100
0010
0000
1010
0000
0001
0000
,
1100
0000
0001
0000
0010
0001
0010
0000
0100
0000
0100
0000
1000
0000
0001
0000
,
1000
0001
1000
0000
0100
0000
1100
0000
0001
0000
0010
0000
0010
0000
0010
0000
,
0001
0100
0001
0000
0100
0000
0001
0000
2002
0000
0000
0000
0000
0000
3000
0003
,
0000
0000
0100
1000
0100
0000
1000
0000
1000
0000
0001
0000
0100
0000
0100
0000
,
0010
1000
0001
0010
0100
1000
0001
0100
,
0001
0000
0101
0000
0000
0000
0010
0000
0000
1000
0010
0000
0000
0000
0100
0000
,
0001
0000
0000
0000
0001
0000
0010
0000
0100
0000
0000
0000
0100
0001
0100
0000
,
0010
0000
1000
0000
0000
0000
0001
0000
1000
0001
1000
0000
0000
0000
0100
0000
,
0012
0000
0000
0000
0100
0000
0100
0003
0010
0000
1000
0000
0100
0000
0010
0000
,
0001
0101
0000
0010
0010
0000
0000
1000
,
0001
0100
0000
0001
0101
1000
1000
0100
,
0010
0000
0001
0100
0001
0000
0100
0000
0010
0000
1000
0000
0100
0000
0010
0000
,
0001
0000
1000
0001
1000
0001
1000
0001
1000
0001
1000
0001
1000
0001
1000
0001
,
1000
0000
0001
0000
1000
0000
0001
0000
0000
1000
0001
1000
0001
1000
0001
1000
0001
1000
0001
1000
0001
1000
0001
1000
0001
1000
0001
1000
0001
1000
0001
1000
,
0001
1000
0001
1000
0001
0000
0000
0000
0000
0000
0001
0000
0000
0000
0000
0000
0100
0000
0000
0000
0010
0000
1000
0000
0000
0000
0100
0000
0000
0000
0000
0000
,
1100
0000
0001
0100
0001
0100
0000
0010
1000
0000
0100
0010
0001
0010
0000
0100
,
1000
0000
1000
0001
1000
0100
0000
1000
0001
0000
0100
0010
1000
0100
0000
0010
,
0001
0000
0100
0001
0100
0010
0000
0000
1000
0000
0100
0010
0000
0001
0000
0000
,
0101
0000
0010
1000
0100
1000
0000
0001
0100
0000
0010
1000
0010
1000
0000
0000
,
0010
0000
0001
0010
0000
0100
0000
0000
1000
0000
0001
0100
0001
0100
0000
0000
,
0001
0000
1000
0010
1000
0010
0000
0100
0001
0000
0010
0001
0010
0001
0000
1000
,
0100
0000
1000
0001
1000
0001
1000
0001
1000
0001
1000
0001
1000
0010
0100
0001
,
1000
0010
0100
0001
1000
0000
0100
0000
0010
0000
0001
0100
0001
0100
0000
0010
,
1000
0000
0100
0010
0001
0010
0001
0000
0100
0000
1000
0001
1000
0100
0000
1000
,
0001
0000
0100
0010
1000
0100
0000
0010
0001
0000
0100
0001
0100
0010
0000
1000
,
0100
0000
0010
0001
0100
0010
1000
0100
0010
0001
0100
0010
1000
0100
0010
0001
,
0100
0010
0100
0001
0100
0010
0000
0100
0001
0000
1000
0100
1000
0001
0000
0100
,
0010
0000
1000
0010
1000
0010
0000
0100
0001
0000
0010
0001
0010
0001
0000
0010
,
0100
0000
1000
0001
1000
0001
0000
0000
1000
0001
0010
0100
0010
1000
0000
0010
,
0001
0000
0010
0001
0010
0001
0010
0001
0010
0001
0010
0001
0010
0100
0010
0001
,
1000
0010
0100
0000
0000
0000
0000
0000
0000
0000
0000
0000
0000
0000
0000
0000
;
